COMUNIDAD MACROSS ROBOTECH
http://macrossrobotech.forogratis.es/

Short Peace (Buki yo Saraba)[MEGA]
http://macrossrobotech.forogratis.es/short-peace-buki-yo-saraba-t4620.html
Página 1 de 1

Autor:  Ikaruss [ Vie Mar 13, 2015 5:47 am ]
Asunto:  Short Peace (Buki yo Saraba)[MEGA]

Bien, aquí subí esta muy buena pelicula, que incluye 4 episodios muy interesantes.

Imagen

Possesions. (Shuhei Morita)
Una noche del Siglo XVIII, en lo profundo de la montaña, un hombre se pierde y se encuentra con un pequeño templo. En el momento en el que entra en él, el espacio de la habitación se transforma en un mundo completamente diferente.

Combustible. (Katsuhiro Otomo)
Un espectáculo épico desarrollado en una metrópolis del Japón del periodo Edo.

Gambo. (Hiroaki Ando)
Un demonio está raptando a todas las mujeres de un pequeño pueblo. Un samurái, que busca un oso blanco, detiene su cacería para ayudar.

A Farewell to Arms. (Hajime Katoki)
Cuatro soldados de élite llegan a una ciudad devastada para acabar con una inteligencia artificial de origen mecánico, iniciando una batalla salvaje.


Película que vi el otro día y recomiendo mucho.
Especialmente cuando hay dos grandes directores conocidos involucrados.



Se la descargan de acá:

:arrow: https://mega.co.nz/#!sM9z1YZZ!Ke1LbxHNT ... lZVx9PLQW4

PD:
Por cierto que e para mayores de 16 o 18, ya que tiene algunas escenas fuertes aquí y allá.

EDITO:
Me estaba faltando la media info:

Spoiler:
Citar:
General
Complete name : Short Peace.mp4
Format : MPEG-4
Format profile : Base Media / Version 2
Codec ID : mp42
File size : 261 MiB
Duration : 1h 8mn
Overall bit rate : 533 Kbps
Writing application : Lavf56.4.100

Video
ID : 201
Format : AVC
Format/Info : Advanced Video Codec
Format profile : High@L3.0
Format settings, CABAC : Yes
Format settings, ReFrames : 4 frames
Codec ID : avc1
Codec ID/Info : Advanced Video Coding
Duration : 1h 8mn
Bit rate : 397 Kbps
Width : 848 pixels
Height : 480 pixels
Display aspect ratio : 16:9
Original display aspect ratio : 16:9
Frame rate mode : Constant
Frame rate : 23.976 fps
Color space : YUV
Chroma subsampling : 4:2:0
Bit depth : 8 bits
Scan type : Progressive
Bits/(Pixel*Frame) : 0.041
Stream size : 194 MiB (74%)
Writing library : x264 core 142 r2 dd79a61
Encoding settings : cabac=1 / ref=1 / deblock=1:1:1 / analyse=0x3:0x113 / me=hex / subme=2 / psy=1 / psy_rd=0.40:0.00 / mixed_ref=0 / me_range=16 / chroma_me=1 / trellis=0 / 8x8dct=1 / cqm=0 / deadzone=21,11 / fast_pskip=1 / chroma_qp_offset=0 / threads=24 / lookahead_threads=3 / sliced_threads=0 / nr=0 / decimate=1 / interlaced=0 / bluray_compat=0 / constrained_intra=0 / bframes=5 / b_pyramid=2 / b_adapt=1 / b_bias=0 / direct=1 / weightb=1 / open_gop=0 / weightp=1 / keyint=250 / keyint_min=23 / scenecut=40 / intra_refresh=0 / rc_lookahead=10 / rc=crf / mbtree=1 / crf=28.0 / qcomp=0.60 / qpmin=0 / qpmax=69 / qpstep=4 / ip_ratio=1.40 / aq=1:0.60
Language : Japanese
Tagged date : UTC 2015-01-23 22:14:05

Audio
ID : 101
Format : AAC
Format/Info : Advanced Audio Codec
Format profile : HE-AAC / LC
Codec ID : 40
Duration : 1h 8mn
Source duration : 1h 8mn
Bit rate mode : Constant
Bit rate : 132 Kbps
Channel count : 2 channels
Original Channel count : 6 channels
Channel positions : Front: L C R, Side: L R, LFE
Sampling rate : 96.0 KHz / 48.0 KHz
Compression mode : Lossy
Delay relative to video : 30ms
Stream size : 65.3 MiB (25%)
Source stream size : 65.3 MiB (25%)
Language : Japanese
Tagged date : UTC 2015-01-23 22:14:05


Página 1 de 1 Todos los horarios son UTC - 3 horas
Powered by phpBB © 2000, 2002, 2005, 2007 phpBB Group
http://www.phpbb.com/