Comunidad Macross-Robotech
https://macrossrobotech.forogratis.es/

El Reino de los Sueños y la Locura [MEGA]
https://macrossrobotech.forogratis.es/el-reino-de-los-suenos-y-la-locura-t4622.html
Página 1 de 1

Autor:  Ikaruss [ Mié Mar 18, 2015 2:04 am ]
Asunto:  El Reino de los Sueños y la Locura [MEGA]

Imagen



Citar:
’El reino de los sueños y la locura’ (‘The kingdom of dreams and madness’) de Mami Sunada en 2013 es un largometraje documental sobre el querido estudio japonés de cine en animación Studio Ghibli.
Con libre acceso a las interioridades del estudio la directora sigue al personal principal, el director Hayao Miyazaki, el productor Toshio Suzuki y el esquivo otro cineasta Isao Takahata a lo largo de un año mientras el estudio prepara sus nuevas y esperadas películas:
• ’El viento se levanta’ (‘The wind rises’, Hayao Miyazaki, 2013).
• ’El cuento de la princesa Kaguya’ (‘The tale of princess Kaguya’, Isao Takahata, 2013).
El resultado es una mirada única al método de trabajo de uno de los más célebres estudios de animación del mundo, un retrato de sus sueños, su pasión y una dedicación que bordea la locura.


Imagen



Media info:
Spoiler:
Citar:
General
Complete name :\El Reino de los Sueños y la Locura.mp4
Format : MPEG-4
Format profile : Base Media
Codec ID : isom
File size : 2.06 GiB
Duration : 1h 57mn
Overall bit rate : 2 500 Kbps
Encoded date : UTC 2014-12-14 05:33:51
Tagged date : UTC 2014-12-14 05:33:51

Video
ID : 1
Format : AVC
Format/Info : Advanced Video Codec
Format profile : High@L3.1
Format settings, CABAC : Yes
Format settings, ReFrames : 4 frames
Codec ID : avc1
Codec ID/Info : Advanced Video Coding
Duration : 1h 57mn
Bit rate : 1 859 Kbps
Maximum bit rate : 7 681 Kbps
Width : 1 280 pixels
Height : 720 pixels
Display aspect ratio : 16:9
Frame rate mode : Constant
Frame rate : 23.976 fps
Color space : YUV
Chroma subsampling : 4:2:0
Bit depth : 8 bits
Scan type : Progressive
Bits/(Pixel*Frame) : 0.084
Stream size : 1.53 GiB (74%)
Writing library : x264 core 142 r2431 ac76440
Encoding settings : cabac=1 / ref=3 / deblock=1:0:0 / analyse=0x3:0x113 / me=hex / subme=6 / psy=1 / psy_rd=1.00:0.00 / mixed_ref=1 / me_range=16 / chroma_me=1 / trellis=1 / 8x8dct=1 / cqm=0 / deadzone=21,11 / fast_pskip=1 / chroma_qp_offset=-2 / threads=12 / lookahead_threads=2 / sliced_threads=0 / nr=0 / decimate=1 / interlaced=0 / bluray_compat=0 / constrained_intra=0 / bframes=3 / b_pyramid=2 / b_adapt=1 / b_bias=0 / direct=1 / weightb=1 / open_gop=0 / weightp=2 / keyint=240 / keyint_min=23 / scenecut=40 / intra_refresh=0 / rc=2pass / mbtree=0 / bitrate=1859 / ratetol=1.0 / qcomp=0.60 / qpmin=10 / qpmax=51 / qpstep=4 / cplxblur=20.0 / qblur=0.5 / ip_ratio=1.40 / pb_ratio=1.30 / aq=1:1.00
Encoded date : UTC 2014-12-14 05:33:51
Tagged date : UTC 2014-12-14 05:38:05

Audio
ID : 2
Format : AC-3
Format/Info : Audio Coding 3
Mode extension : CM (complete main)
Format settings, Endianness : Big
Codec ID : ac-3
Duration : 1h 57mn
Bit rate mode : Constant
Bit rate : 640 Kbps
Channel count : 6 channels
Channel positions : Front: L C R, Side: L R, LFE
Sampling rate : 48.0 KHz
Bit depth : 16 bits
Compression mode : Lossy
Stream size : 540 MiB (26%)
Language : Japanese
Encoded date : UTC 2014-12-14 05:37:24
Tagged date : UTC 2014-12-14 05:38:05



Se lo descargan de acá:

:arrow: https://mega.co.nz/#!eNdzhIiS!pZYKkvilF ... jq7dray6VA

Documental mas que recomendable.

Autor:  spiegel [ Mié Mar 18, 2015 9:11 pm ]
Asunto:  Re: El Reino de los Sueños y la Locura [MEGA]

Apuntado queda ;)

Página 1 de 1 Todos los horarios son UTC - 3 horas
Powered by phpBB © 2000, 2002, 2005, 2007 phpBB Group
http://www.phpbb.com/